Блог Яндекс.Браузера

Бета-тестирование Яндекс.Браузера 17.10.1

Тимур
25 октября 2017, 11:32

Сегодня мы предлагаем попробовать новую бета-версию Яндекс.Браузера 17.10.1 для Windows и macOS, в которой основные изменения произошли в работе с анимированными фонами и загрузками. Кроме того, мы начинаем ограниченное тестирование новой «шапки» браузера, технологическую основу которой переписали практически с нуля.

Новые фоны

Анимированные фоны, которые пользователи беты могут установить из галереи, поддерживают несколько вариантов качества. В предыдущей сборке Яндекс.Браузера выбор качества определялся лишь разрешением экрана. В новой версии мы сделали проверку еще и возможностей самого компьютера, чтобы не загружать наиболее тяжелые варианты на относительно слабые устройства.

И самое приятное: мы добавили в галерею 25 новых анимированных фонов, максимальное разрешение которых составляет теперь 2560×1440 (против 1920×1080 у старых фонов). Вот лишь некоторые из них:

Упрощение повторных загрузок 

Новая бета также снижает вероятность загрузки уже скачанных файлов. Согласно нашим наблюдениям, многим пользователям проще скачать файл повторно, чем вспомнить, куда именно он был сохранен в прошлый раз. Теперь Браузер в ряде случаев будет предлагать открыть уже загруженный файл при повторной попытке его скачать.

Новая «шапка»

Мы уже рассказывали, что «шапка» Браузера (то место, где располагаются Умная строка, панели вкладок и закладок) ограничена в возможностях из-за того, что написана на HTML/JS, а не на нативном языке C++, как остальные компоненты Браузера. И пришло время это исправить. Уже в этой бете у многих пользователей появятся иконки расширений на новой вкладке, возможность перетаскивать адреса страниц на панель закладок, удалять их оттуда через контекстное меню и некоторые другие изменения. Сейчас обновленная «шапка» доступна не всем пользователям бета-версии: нам по-прежнему важно тестировать оба варианта. Пожалуйста, замечания о любом варианте присылайте нам через «Сообщить о проблеме» в меню.

Установить бета-версию можно с browser.yandex.ru/beta.

344 комментария
Сергей Иванов
25 октября 2017, 11:58
Отличная новость
Сейчас попробую поставь поверх стабильной версии. Буду вашим тестером беты. 
Если не получится поставить поверх, снесу стабильную версию и поставлю бетку.
Сергей Иванов,
это очень важный комментарий. Держите нас в курсе
Артём,
Всё прошло успешно. Я с вами. Тестируем новую версию, господа.
Можно ли как-то форсировать переключение на новую шапку? У меня после обновления не появились иконки расширений, значит ли это, что не попал под тестирование?
Тимур
Сотрудник Яндекса25 октября 2017, 14:34
zagrebelin,
да, это значит, что шапка у вас "старая". Пока форсировать нельзя. 
Тимур,
 А отчего зависит приход обновления? На работе обновил, все есть. Дома - расширений нет. Аккаунт един с синхронизацией.
Вот думаю, на работе с корпоративного сотового интернета, а дома ртк.
Тимур,
очень жаль, что нельзя принудительно включить у себя новую шапку - ооочень давно жду расширения на новой вкладке!
Тимур
Сотрудник Яндекса26 октября 2017, 14:01
Адмирал,
выбор варианта происходит случайно.
Тимур,
опасно то опасно, но тем самым вы других ограничиваете в выборе...я писал ниже, повторюсь.

У меня ноутбук i7, 16gb памяти, ssd, но судя по devtools панели я загружаю и вижу следующее:
-----------
Stream #0:0(eng): Video: vp8, yuv420p(progressive), 1366x768, SAR 1:1 DAR 683:384, 25 fps, 25 tbr, 1k tbn, 1k tbc (default)
-----------
1366x768 вместо fullhd((((
Где на linux найти этот анимированный загруженный фон? Какой файл отвечает за фон(json)?
Я так понимаю,  с новой шапкой  новая страница с Таблом (при нажатии на кнопу +) будет открываться быстрее?
kernit,
ага, и 4к видео за секунду грузиться будет независимо от соединения. А еще комп перестанет потреблять электричество и сам будет его генерировать на всю квартиру. да-да, проверьте, всё правда!
Amphyby,
очень смищно.
Тимур
Сотрудник Яндекса25 октября 2017, 14:35
kernit,
нативная реализация (т.е. на С++) должна работать оптимальнее. 
Тимур,
Это хорошо.
Раз в теме затронута шапка. Можно ли панель закладок привести к одному виду на экране новой вкладки, в интерфейсе активной умной строки и в статическом виде? Сейчас панель закладок оформлена везде по-разному и выглядит это, как по мне, очень коряво.
Тимур
Сотрудник Яндекса25 октября 2017, 14:36
Андрей,
в новой шапке они выглядят как раз одинаково. 
Тимур,
Все, теперь вижу. Вот бы еще желтую обводку умной строки убрать для еще большего единообразия. Можно если что само поле умной строки подсвечивать.
Что-то не заметил нового качества анимированных обоев. На FullHD выглядит мягко говоря не очень. 
https://pp.userapi.com/c639921/v639921020/52135/ipaFYjLWW0Q.jpg
Как-то так. Может можно принудительно выставить качество повыше?
Тимур
Сотрудник Яндекса25 октября 2017, 14:37
kemosab,
а характеристики какие у компьютера? Особенно количество оперативной памяти интересует. 
Тимур,
i5 2500K 4.5Ghz, 10Gb Ram, HD6970. Думаю остальное не сильно важно==)
Тимур
Сотрудник Яндекса25 октября 2017, 17:03
kemosab,
мне бы столько памяти :) на всякий случай: сначала загружается стандартное качество, а потом уже подтягивается высокое. 
Тимур,
да, после перезапуска и работы, то ли глаза уже привыкли, либо действительно качество получше подтянулось. Выглядит здорово.
Спасибо за вашу работу:)
Тимур,
а как понять, какое качество загрузилось? Может сделаете настройку выбора качества видеообоев? Так, думаю, многим было бы удобнее и прозрачнее.
Тимур
Сотрудник Яндекса13 ноября 2017, 10:28
SINISTER,
опасно. Так люди начнут вручную ставить максимальное качество, а потом удивляться, почему Браузер подтормаживает. 
Закладки, разделенные на карточки — не круто.
Обновлено 25 октября 2017, 13:22
Тимур
Сотрудник Яндекса25 октября 2017, 14:37
Dmitry Ya.,
не понял, вы о чем? 
Тимур,
на скриншоте визуальные закладки не слиты в общий блок, а разделены и скруглены. Возвращение к Speed Dial. На мой взгляд, не очень хорошо смотрится.
Dmitry Ya.,
это уже давно и на мой взгляд - очень круто.
Dmitry Ya.,
кстати да, +1
Вы бы лучше 64 бит сделайте... 2017 год уже как никак
riazantseff.aleksandr
25 октября 2017, 14:09
Ура !
Дождался обновления шапки. Вот только браузер как обычно врет, что у меня актуальная версия. Хотя у меня сейчас 17.9.0.1536 beta
Тимур
Сотрудник Яндекса25 октября 2017, 14:39
riazantseff.aleksandr,
Россия? 
riazantseff.aleksandr
25 октября 2017, 15:26
Тимур,
неа
Тимур
Сотрудник Яндекса25 октября 2017, 15:29
riazantseff.aleksandr,
если Украина, то это ожидаемо. 
riazantseff.aleksandr
25 октября 2017, 15:41
Тимур,
ну надеюсь в будущем это как-то поправят
riazantseff.aleksandr,
все вопросы к вашим властям)
riazantseff.aleksandr
25 октября 2017, 16:07
Владислав,
Это не мои власти. Пусть в аду горят.
А, что там закон какой-то приняли, и из-за которого подобные проблемы ?
riazantseff.aleksandr,
Да на Украине приняли закон о запрете деятельности многих Российских компании и закрытии и интернет доступа к сервисам Яндекса и Соцсетям ВК Одноклассники и Мой Мир. Закон принят давным давно. Спасает лишь впн сервис(Совет Украинцам/Малороссам), можно поставить как расширение в браузер. 
Антон Валерьевич
25 октября 2017, 16:42
dyxlov,
SwitchyOmega в браузер, Tor в планировщик заданий, настроить правила переключения и ложить на блокировку. Сам лично так делаю.
Антон Валерьевич
25 октября 2017, 16:43
Тимур,
А как сделать чтобы проверка обновлений и обновления проходили через прокси?
Тимур
Сотрудник Яндекса25 октября 2017, 17:14
Антон Валерьевич,
сейчас так нельзя. 
riazantseff.aleksandr
25 октября 2017, 18:52
riazantseff.aleksandr,
ну значит будем обновляться в ручную
Я что-то пропустил? Где «вставить и перейти»? В буфере обмена ссылка, да. 17.10.1.869
https://pp.userapi.com/c840726/v840726237/19f5b/pZymurGHn50.jpg
Тимур
Сотрудник Яндекса25 октября 2017, 15:29
chiwell,
исправим скоро. 
+ 5 баллов! Как я долго ждал расширений на вкладке табло!!
Обновлено 25 октября 2017, 14:45
Адмирал,
Поддерживаю :)
Когда-то в свое время писал сюда пожелание, и даже в фотошопе делал примерно как бы это выглядело....и вот эта фича тут как тут👍👍👍
Как сделать так, чтобы в браузере автоматически отклонялись предложения подписаться на оповещения с какого-нибудь сайта? Устал уже нажимать кнопку "блокировать" на каждом новом сайте.
Александр,
Поддерживаю. Была бы в настройках галочка "Не спрашивать"
Александр,
 Попробуйте в настройках, допнастройки, личные данные, настройки содержимого, уведомления -  [•] не показывать уведомления.
Обновлено 25 октября 2017, 14:55
Адмирал,
да, это оно. Спасибо
Антон Валерьевич
25 октября 2017, 15:58
Александр,
++
А мне вот нужна подписка на некоторых сайтах (например ЯндексПочта). А на остальных нет, совсем.
Александр,
согласен. Вот пусть бы была иконка рядом с значком защищённого соединения, мол, вот, сайт предлагает выводить сообщения. Если хотим — жмём на эту иконку и соглашаемся (а потом там же и отключаем), не хотим — игнорируем и скроллим дальше. 
По моему, этот вариант гораздо лучше, нежели спрашивать каждый раз через диалоговое окно.
HallWeb,
там есть кнопка "управление исключениями", там можно настроить что делать с конкретным сайтом. попробуйте
Александр,
хм, я почему то думал что это работает только когда уведомления включены. Ок, попробую, спасибо.
Как всегда ничего полезного. Как всегда повторю чего не хватает.
1. Открывать новые вкладки рядом с текущей.
2. Сделать активную вкладку более выделяющейся, тёмный тон для панелей и вкладок как в опере. А лучше систему настройки цветов как в вивальди. Белый цвет браузера выжигает глаза ночью…
3. Сделать нормальное красивое табло как в вивальди или опере, без дурацких ограничений на количество вкладок и с поддержкой папок. Нынешние кирпичи ужасны.
4. Объединения вкладок в группы как в вивальди.
5. Нормальной системы передачи файлов и страниц во внешние качалки и браузеры.
6. Возможности отключить уведомление о переходе в полный экран при просмотре видео (раздражает!).
7. Перехода в корень сайта при нажатии на домен в режиме показа адреса.
8. Поиска по странице по мере набора слов.
9. Увеличить количество недавно закрытых вкладок хотя бы до 15.
10. Допилить сохранение страниц в формат mht, с возможностью внедрять в страницу ссылку на оригинал.
11. В управлении паролями возможности изменять логины и пароли.
Присоединяюсь к 1, 7 и 9 пункту. Очень не хватает.
KOT040188,
1, 6, 9 подпишусь.
KOT040188,
 не проще написать, чтобы Яндекс превратили в Вивальди?
Randy,
ЧЧтобы удалили андроидверсию и синхронизацию? Нафиг такое нужно.
KOT040188,
Со всем согласен. Такой браузер был бы проосто шикарен
Скажу лишь одно 
Вы следите за мной? 
Тимур
Сотрудник Яндекса25 октября 2017, 15:30
Г`Асдрубал,
нет, а надо? 
Где взять эти обои в основную версию браузера 17.9.1.768
Значит ли это, что теперь появится (вернётся) возможность создавать ярлык на страницу путём её перетаскивания в окно папки в проводнике (Ticket#17080416130345449)?
Тимур
Сотрудник Яндекса25 октября 2017, 15:31
Максим,
да, с перетаскиванием лучше станет. 
Уху! Вернули иконки расширений!
Тимур
Сотрудник Яндекса25 октября 2017, 16:32
e.migalckin,
да, но пока не всем доступно. 
Анимированные фоны — это зрелищно, но те, что представлены на видео, непрактичны. Фон должен быть фоном, помогать сосредоточиться на содержимом, а не отвлекать на себя внимание.
Тимур
Сотрудник Яндекса25 октября 2017, 16:32
Лев,
этот фон не для работы :) его видно только недолгое время выбора сайта.
Тимур,
Выбор сайта — частое действие во время работы.
Обновлено 25 октября 2017, 17:10
Тимур
Сотрудник Яндекса25 октября 2017, 17:13
Лев,
на этот случай есть прекрасный статичный серый фон :) https://browser.yandex.ru/wallpapers/34/970
Тимур,
Однотонный фон слишком скучен.
Лев,
всем не угодишь, а коллекция со временем будет пополняться :-)
Лев,
окей, а какие видеофоны отвечали бы этому требованию? 
По моему, всё что движется — то отвлекает. Кого-то сильнее, кого-то слабее. Я не говорю, что видеофоны это плохо, но говорю, что все видеофоны непрактичны для вас.
Gleb-960,
Любой фон с не отвлекающими размытыми деталями: например, облака. Из уже имеющихся волны очень неплохи (но яркий цвет, сливается с текстом), ветка не будь дрожания камеры, капли без резких движений.
куда исчезли фоны по умолчанию?
https://yadi.sk/i/sOOPw5VX3P5rm7
(если фоны загружаются через галерею, добавьте раздел в галерею "фоны по умолчанию".)
Тимур
Сотрудник Яндекса25 октября 2017, 18:04
Вася,
в галерее в папке "Видео" можно найти. 
А на macOS когда можно будет получить обновление? на https://browser.yandex.ru/beta/?from=promo все еще версия 17.10.0: http://joxi.ru/brRKzBocQNZMMm
Тимур
Сотрудник Яндекса25 октября 2017, 17:14
N,
сейчас откатили новую версию для Мака. Чуть позже вернем. 
Тимур,
стало хуже) 
Тимур
Сотрудник Яндекса26 октября 2017, 11:14
lkzcover,
чем? Опишите симптомы сразу в поддержку, пожалуйста. 
Тимур,
в поддержку написал. Продублирую. На macOS кнопка выбора фонов вообще пропала, теперь можно поставить только те, что скрываются под кнопкой "настроить экран"
Уже давно не пользуюсь этим браузером, но за обновами еще слежу... решил глянуть на эту.. на новой вкладке у меня торчит кнопка яндекса, хоть всевозможная связь с этим говно-сайтом в браузере разорвана. Как так?
Тимур
Сотрудник Яндекса25 октября 2017, 17:11
,
может потому что поиск по умолчанию ЯНДЕКС выбран? 
Тимур,
Конечно же нет. Я же написал любая связь с этим... прервана в браузере.
Тимур
Сотрудник Яндекса31 октября 2017, 12:55
,
похоже на баг, оформлю его. А вот за говносайт обидно. Именно благодаря ему существует наш браузер. 
Раз уж затронули шапку - очень хотелось бы когда-нибудь увидеть возможность ее перемещения к бокам экрана (как уже сделано в Вивальди и где-то было в Опере, кажется). Сбоку ведь очень приятно выглядит, и названия вкладок (при большом количестве) прочитать можно легко. И очень хотелось бы увидеть группировку уже открытых вкладок.
Эх, видимо новая шапка мне не досталась (( А вообще, по ощущениям быстрее страницы тяжелые грузиться стали, уж не знаю показалось ли или ваша химия, но пока вот такое ощущение :) 
Новые иконки "Загрузки", "Назад", "Перейти на Яндекс", "Обновить" потрясающие.
Microl,
выложите хоть скриншот посмотреть... :)
Владимир,
Я бы выложил, но тут вроде нельзя :)
Максим Грибанов
25 октября 2017, 20:21
Microl,
загрузите скриншот на Яндекс Диск, поделитесь ссылкой и дайте нам ссылку на скриншот.
Максим Грибанов,
https://yadi.sk/i/Y1s--Jk13P6QEa К сожалению скриншот не покажет этой красоты. Они просто великолепны. На скриншоте не видно. Они стали детализированными. Больше пикселей.
Владимир,
Ну да. Там не видно(
Microl,
скинь мне скрины  с деталями всеми, касаемо новой шапки  на почту egor.bovan@yandex.com  плиз, я хочу увидеть как выглядит меню закладок на открытой и новой странице
Обновлено 27 октября 2017, 16:20
egor.bovan,
Во-первых, я скинул.Во-вторых, изменились только эти 4 кнопки.
Обновлено 27 октября 2017, 18:30
Microl,
Печаль, значит и ты новую шапку не получил
Нужно побольше медитативно медленных  и минималистичных анимированных фонов. )
У меня ноут слабый и новая вкладка раньше открывалась долго, теперь мгновенно.  
K,
Да и вообще все как-то летать начало. Раньше при обновах такого не замечал. Уменьшили потребление памяти?
K,
кстати да, тоже заметил, моментально открывается :-)
K,
это потому что шапка браузера была написана на HTML/JS. А теперь переписали на C++ (который работает быстрее), о чём и было написано в  посте вверху.
Обновил браузер, новой шапки не вижу, все по старому, появилась только божья коровка. Что делать? 
Данил Батин
25 октября 2017, 19:08
trefilow.dim,
читать статью внимательнее
Данил Батин,
 Я так и не понял почему у меня нет этой шапки. Объясни
trefilow.dim,

"Сейчас обновленная «шапка» доступна не всем пользователям бета-версии: нам по-прежнему важно тестировать оба варианта." !!!

Если и обновилась «шапка», то главное что сделали, это переписали на другой "нативный язык C++ " что и все компоненты браузера. Это поспособствует скорейшему развитию компонентов браузера и стабильности.

Обновлено 25 октября 2017, 23:08
А что будет в будущей версии Яндекса

Сергей,
Алиса наверное))
Как происходит проверка на скачанные файлы, тупо по имени или по хэшу?
Тимур
Сотрудник Яндекса26 октября 2017, 13:03
Gumbo,
url и некоторые заголовки типа Last-Modified. 
ЛУтше сделали бы мобильную версию лучше,ато чёрт знает что,мобильника и пользуются больше людей,вот о них надо думать...
Тимур
Сотрудник Яндекса26 октября 2017, 11:19
aleck.mack2018,
запуски для компьютера никак не влияют на разработку для телефонов. Это разные ресурсы. 
Обновлено 26 октября 2017, 11:19
Вот как так: уже какой год жду анимированные обои снегопада, а его всё нет и нет =(
Только что установил новую бета версию, тестирую, пока что полёт нормальный.
Кстати, а когда начнёте полноценно внедрять Fluent Design? И будете ли? Так-то в браузере некоторые элементы уже присутствуют. :)
Тимур
Сотрудник Яндекса26 октября 2017, 11:19
l.i.7,
а зачем? 
Спасибо за обновление!
Очень ждём новую шапку!


Фоны прекрасные, но зря вы от бесшовности ушли.
"Рывки" на стыках цикла режут глаз.
В прежних переход был выполнен куда изящнее.
Зашибись, обновила бету и в итоге новая вкладка с Табло не открывается. Плюсик не жмется, да еще и при этом все активные вкладки крашатся - резко появляется тупо белый экран и ни одна кнопка браузера не работает. Лечится двойным перезапуском (при одинарном перезапуске появляется очень интересный интерфейс). Но на Табло так выйти не могу, хоть браузер, хоть комп ребутай. Чё делать? Ждать фикс-обновы или переустанавливать бету?
Тимур
Сотрудник Яндекса26 октября 2017, 11:13
stacie92,
помогает переустановка. Но желательно сначала попробовать написать нам через browser.yandex.ru/feedback. 
Кстати, а Portable версию можно у вас попросить?
Тимур
Сотрудник Яндекса26 октября 2017, 11:12
Артём,
такой сейчас нет. Можно, конечно, найти обходной способ и запускать с параметром --user-data-dir=<путь к папке>, который указывает адрес папки профиля. 
Упрощение повторных загрузок. Это полезно! Разным бухгалтерам очень поможет!  )) 
Сергей Кашуба
26 октября 2017, 04:29
Я тоже щас скачаю попробую
when 17.10.1 for Linux?
Тимур
Сотрудник Яндекса26 октября 2017, 11:10
urychdz,
beta for Linux uses stable code, and will be released simultaneously with stable for Win and Mac. 
Тимур,
is it possible to align beta-releases for Linux with the beta for Mac and Win?
Тимур
Сотрудник Яндекса6 декабря 2017, 13:54
vis.vitalis90,
no. Beta for Linux is based on stable code. 
Обновился. Табло стало меньше по размеру, это хорошо. Но при просмотре виде на ютубе эта ваша шапка начинает раздражающе мигать, когда курсор находится над видео!!!!!!!!!!!!!!!!!!!!!!!!!!!1 Так и становятся эпилептиками. А ещё мигает при закачке файлов.
Обновлено 26 октября 2017, 00:27
Тимур
Сотрудник Яндекса26 октября 2017, 11:06
KOT040188,
подскажите, пожалуйста, номер обращения в поддержку. 
Тимур,
ЯЯ Ещё не обращался. Хочу видео записать. Причём если с экрана писать, то моргания не видно.
Обновлено 26 октября 2017, 13:24
Тимур,
Ticket#17102621450268756
Тимур,
Ticket#17102621450268756
Скажите пожалуйста, когда можно лицезреть стабильную версию Яндекс Браузера для платформы Linux? Или она не планируется вовсе? Уже несколько лет как Яндекс Браузер для Linux носит статус Бета. Или линуксоиды это такой полигон для тестирования?
Тимур
Сотрудник Яндекса26 октября 2017, 11:05
mail@ifork.ru,
бета для Linux с недавних пор собирается на базе стабильного кода для других платформ. Но Linux слишком многообразен, поэтому еще бета. 
Если бы с бетой не снижалась скорость работы браузера - поставил бы
Тимур
Сотрудник Яндекса26 октября 2017, 11:04
culackow.vladisl,
а она снижается? 
Тимур,
Да, подтормаживает. Неприятно
culackow.vladisl,
на обоих старых буках была и бета и не бета, не заметил разницу. А с этим последним обновлением беты кажется что браузер быстрее релизного стал работать :-)
Ни в стабильной, ни в бете нельзя переключить язык браузера с английского – хотя стоит русский. Мак ОС версия.
Обновлено 26 октября 2017, 11:41
Тимур
Сотрудник Яндекса26 октября 2017, 13:07
mullwar,
хм, вряд ли это браузер. Но напишите, пожалуйста, через "Сообщить о проблеме" в меню на всякий случай. 
Очень жду раздельное табло, привык уже к нему...
Я переустановил браузер, старое табло вернулось, а привык уже к новому 

Так и не понял: Где найти новые фоны для браузера? стабильная версия
Те, которые есть в стабильной версии
Обновлено 26 октября 2017, 13:54
Уважаемые разработчики Яндекс Браузера, а планируется ли выпустить портативную версию, чтобы на флешке можно было браузер таскать?
Артур Шаньязов
26 октября 2017, 16:10
ну наконец-то то, что я с момента выхода браузера просил возможность удалять, перетаскивать, редактировать закладки на панели закладок Вы добавили))
осталось дождаться когда эта бета версия станет для меня доступной, а то у меня нету еще.
автопаузу звука на фоновых вкладках, когда звук на активной вкладке идет, давно убрали вы?
Боже, можно скопировать ссылку в папку, просто перетащив ее! Как же долго я ждала 
этого! Ребята, вы умнички!
hel.mart,
Сегодня перетаскивание и редактирование закладок отрубилось напрочь(
Обновлено 2 ноября 2017, 20:36
Проблема с музыкой. Вернулся снова на ЯБ, после того, как ещё в прошлой бете починили долгожданный баг. В общем, ещё с прошлой беты, когда слушаю музыку на Яндекс.Музыке и при этом открываю какой-нибудь сайт, то музыка заикается, словно ресурсов пц не хватает ей. Мне казалось, что обработка звука в приоритете по сравнению с другими задачами, но видимо нет. Если слушать музыку в другом браузере или плеере, и при этом серфить в ЯБ, то всё нормально.
Александр,
Есть такой баг. Переключите тип плеера на Flash
Будем ждать когда починят HTML5 потому что когда Flash нет эквалайзера
Обновлено 26 октября 2017, 17:49
Андрей,
да, это временное решение работает. Спасибо
Александр,
 После обновления браузера до версии 17.10.1.1202 beta (64-bit)
у Вас что-нибудь изменилось?
У меня все так же.
Андрей,
Я сделал, как Андрей написал выше. С тех пор проблема не беспокоит.
для Windows и macOS
Да ну вас.
Я не понял, обновленная шапка, вы подразумеваете только отображение расширений на новой вкладке или ещё и дизайн?
Добрый день. А вы планируете вернуть поддержку 1Password?  Раньше все работало, теперь же просит постоянно перезагрузить браузер. https://yadi.sk/i/D9F3I0GA3P8aWo
Ждать увеличения количества плиток или добавления папок для плиток на табло?
Доброго времени суток. Переустановил Windows, заново поставил Яндекс.Браузер (версия 17.9.1.850) и сейчас при добавлении сайтов на табло они появляются там без иконок - можно как то вернуть иконки? С ними смотрелось красивее и удобнее. 
А вообще нужно сделать возможность их кастомизировать как в Опере.
Заранее спасибо!
Обновлено 27 октября 2017, 03:35
Иван Душинский
27 октября 2017, 03:46
ВЫРУЧКА СРЕДСТВ
Надеюсь наконец-то займетесь закладками. 
Будим пробовать
У меня после обновления не отображаются страницы. В чем проблема? 
+ переустановил. При запуске открываются страницы, которые остались с прошлой сессии. Нажимаю на открытие новой вкладки - ничего не происходит. Пытаюсь вбить адрес в адресную строку, не вбивается. Нажимаю на кнопку Яндекса (стартовая страница) опять ничего.  Хром и Файрфокс работают нармально...
Спасибо, ребят, за обновление. Полдня промаялся, так и не решил проблему с отображением. В пень ваш браузер), родной хром хотя бы стабильнее. 
zatokrymnash,
вы пишите в блог бета-браузера. Он по определению может быть не стабилен. Пользуйтесь релизной версией.
Давно пользуюсь Я.Браузером, но в последнее время он начал меня утомлять. 

Закрываешь - и начинается...

Я его закрыл, чтобы освободить память и прочие ресурсы для других задач, а он убирает с экрана форму, но остается штуки три процесса, один из которых будет несколько минут пилить жесткий диск - рыться в собственной HISTORY и бог весть где еще.

Устал...

Сегодня оторвал час от работы, завел нелюбимый RAM-диск и отселил туда профиль браузера. Ибо достало уже, много месяцев терпел.
Как я понял, отключение всех блокировщиков рекламы на странице поисковых результатов Яндекса (она загружается "мимо" блокировщиков) не баг,а фича. Но зачем? Этим вы только гоните юзеров на другие браузеры (или на другие поисковики).
Anatoly Pitikin,
 У яндекса позиция такая - браузер сам решает что для пользователя лучше. Ты разве не чувствуешь, как с рекламой твоя жизнь стала лучше?


А вообще даже не удивляет такой манёвр, если вспомнить, что софт яндекса попадает на компьютеры практически как вредоносное ПО. 
Даже сейчас браузер цепляет ссылку-кнопку на панель задач, которую нужно удалять как программу.       


Можно предположить следующий шаг - отключение блокировки сервисов яндекса на сторонних сайтах. А потом и вовсе запрещать установку блокировщиков в браузер(как в мобильной версии).
Комментарий удалён
Тимур,
как раз именно браузер. В других все работает отлично. И это не баг конкретного расширения. Не работает для всех адблокеров конкретно в Яндекс.Браузере. Также складывается ощущение, что вкладка с поиском находится в отдельном контейнере и отграничена от расширений (т.к. интерфейс расширений для блокировки элементов попросту не открывается, а если отслеживать сетевые запросы через uBlock - будет пустота, будто при обновлении страницы вообще ничего не загружалось, хотя сама страница обновляется).
Anatoly Pitikin,
Да, подтверждаю, все как с цепи сорвалось. На меня со всех сторон сыпятся рекламные предложения по всем темам моего поиска, до тошноты. Стоит что-то напечатать, и это тут-же предлагается купить, посетить, и.т.д. Ребята, сделайте что-то, это нереально!!! Ничем не отключить! Яндекс и mail.ru, сладкая парочка, сломавшая мне мозг((
Тимур
Сотрудник Яндекса7 декабря 2017, 12:57
hel.mart,
так и не понял, что именно отключить. Я обычно в рекламе жму на крестик и выбираю вариант "уже купил / не интересуюсь". Это помогает. 
Тимур,
Да нифига не помогает, я уже вторую неделю смотрю на беговые дорожки во всех вариантах. Вопрос – отчего с конца ноября адблокеры перестали реагировать на весь этот кошмар?)) Я за всю свою жизнь не купила ничего из того, что мне рекламировалось в браузере. Зачем мне теперь наблюдать эту мусорку? Я хочу иметь возможность отключать показ этого трафика, или хотя бы  возможность его блокирования. И не надо говорить, что реклама –это жизнь. Клиент платит за показ, какая разница, видит кто его муть или нет?!

Заметил, что вы убрали возможность "отключить масштабирование изображения при высоком разрешении экрана". Есть вероятность того, что эта функция вернется?  А то масштаб 125% windows убирать не хочется, а при таком масштабе браузер слишком крупный.
Мне понравилось, что изменили интерфейс. Теперь он стал более строгий. Кроме того, мне нравится, что в строке поиска  уменьшили шрифт. Но я потерялся, когда увидел новое табло, пропали иконки  загрузки, недавно закрытые, другие устройства. У меня на трёх устройствах стоит Яндекс браузер и было удобно через табло находить  недавно открытую вкладку на том или ином устройстве.
По моему мнению старое табло было более удобным.
Новый браузер впечатлил))) Особенно анимированные новые фоны. Если бы Вы еще сделали расширенную настройку для табло с сайтами (возможность менять размер и прозрачность), цены бы Вам не было)))))
подскажите когда выйдет из беты https://browser.yandex.ru/beta/ ?
browser.oneprog.ru,
для тех кто не хочет первым тестировать разрабатываемые функции браузера и пользоваться релизной версией: https://browser.yandex.ru/
Обновился со старого интерфейса, вырвиглазно, но терпимо. Как то можно убрать фигню что бы вкладка активная не меняла цвет? 
lKoLoBoK,
Настройки - Выделять цветом активную вкладку.
lKoLoBoK,
а по моему даже не плохо, активная вкладка приобретает основной цвет сайта.
блин с обновлением пропали анимированные фоны? как вернуть?
Установил я бету. Но, фоны у меня не двигаются, просто как обычные
Если в новой шапке появится отключение уведомлений о выключенном Protect, то это станет обновлением века. 
Ну и почему в шапке до сих пор нельзя сразу начинать выделять адрес? Почему до сих пор нужно 3 раза тыкать в адресную строку, чтобы начать выделение части адреса? И почему до сих пор таскается всё окно браузера, когда тыкаешь в пустую часть адресной строки?
VIVISECTVI,
почему три, два вроде...
Тимур
Сотрудник Яндекса31 октября 2017, 12:01
VIVISECTVI,
ровно это и упрощается с новой шапкой. Это я про первое. А перетаскивание специально так сделано. Иначе при большом количестве вкладок как еще окно таскать. 
Тимур,
я что-то не пойму, зачем окно вообще таскать? Ну вот растянул я окно на своем макбуке по размеру монитора. Одно неверное движение, и окно уезжает за пределы экрана. Вы можете себе представить, как это раздражает?
И я вот всё равно не пойму логики вашей шапки... Зачем вот эта выпадающая хреновина, где просто дублируются пункты меню?! Ну, скажем, мне в принципе не нужно табло  (я им не пользуюсь, а в настройки я по другому зайду), и нет никакой возможности выпадающую шапку отключить, чтобы адресная строка вернулась к своему нормальному поведению. 
Александр
1 ноября 2017, 13:58
Тимур,
поддерживаю собеседника. Проблема с этими перетаскиваниями есть! Частенько браузер улетает за пределы экрана и тогда, да, прицеливаешься за краешек панели с кнопками и тащишь окно обратно как было.
Тимур, когда галерея фонов в релиз уже пойдет?
darnyk27,
нет, из России. Но я про релиз, а не про бету!
Владимир,
тоже самое.релиз версии 17.9.1 а новых фонов как не было так и нет
Обновлено 30 октября 2017, 18:04
darnyk27,
похоже, что ни у кого нет, у кого релизы стоят (сейчас 17.9.1 актуальная версия)
Тимур
Сотрудник Яндекса31 октября 2017, 11:56
Владимир,
пока только в бете. 
Тимур,
Ну когда же, когда же, когда же, когда же галерея фонов будет в релизе?? Я смотрел в бете - всё хорошо, багов нет :-) давайте в релиз ;)
Добавьте анимацию к ползунку, которым страницы листаем. Ну знаете, когда мышку направил на него он вылез, а так его нет. Как в Windows 10, я конечно сам не знаю зачем, мб круто будет выглядеть.
kbh,
+
Да, и возможно не помешала бы некоторая похожесть с новым языком дизайна "Windows 10" (Fluent Design)!
Обновлено 31 октября 2017, 00:04
kbh,
я уже 4 года жду этого, а когда заикнулся, тут, в блоге, что есть экспериментальный флаг для включения подобного скроллбара, то его в следующей сборке уже не стало.. рукалица, ногакумпол.
Да, и в целом, всегда был убеждён: если продукт неудобен, то он не может быть назван безопасным.. Яндекс - реклама, реклама дома престарелых.
Обновлено 31 октября 2017, 13:53
Я ещё неделю назад установил бету и табло не менялось. Сегодня у меня вылетело, я не смог открыть браузер, переустановил. Теперь табло изменилось.
Открываю вчера браузер. Захожу на Яндекс. Опа! 
Какой-то тв онлайн. Популярные телепередачи. Яндекс, я не поклонник "Битвы экстрасенсов" и передачи "Деффченки"! Откуда это дерьмо появилось? Почему появилось?


Дзен показывается. Хотя  в настройках выключено.
Яндекс ты офигел совсем что ли?

Тимур
Сотрудник Яндекса31 октября 2017, 11:59
inet-creative,
Дзен показывается на новой вкладке браузера или на сайте Яндекса? Настройка только про браузер. 


ТВ же там снизу. Его можно и не смотреть. 
Тимур,
Очевидно, что г-н inet-creative про сайт Яндекса, а не про браузер. Но что касается сайта Яндекса, то спасибо хоть на том, что это добро (ТВ и проч.) можно свернуть, чтобы больше никогда не видеть. Потому что, на мой взгляд, такое решение (популярные телепередачи и т.п. снизу странички) немного попахивает mail.ru и не соответствует позиционированию Яндекса как компании немного другого уровня (я надеюсь) :-)
Тимур,
 к сожалению я погорячился. Да это сайт, а не браузер. Не по адресу написал. 
"Его можно и не смотреть". Дык, я и так Яндекс поиск стараюсь смотреть по минимуму, больше Гугл, там дзенов нет. Сейчас с этой фигней еще буду меньше. Видимо со словом "раздражение" в Яндексе не знакомы. 
Тимур
Сотрудник Яндекса1 ноября 2017, 10:46
inet-creative,
там внизу ссылка есть "Свернуть развлекательный контент" :) 
Тимур,
, а то что серыми буквами на сером фоне? 
Причем ПОЯВЛЯЕТСЯ ТОГДА, когда скролом опускаюсь до определенного момента. И если бы вы не написали, эту серую полоску с ссылками из серых букв я бы никогда в жизни не увидел бы.
Ладно, пойду еще раз перечитаю рекомендации для вебмастеров от Яндекса относительно юзабилити сайтов. Видимо я что-то упустил.... 
Что можно сделать, если в качестве обоев был установлен просто чёрный пиксель в пнг формате, а после накатки этой беты окно браузера виснет на открытии любой страницы, в том числе и внутренних?
В двух профилях обоины и они открываются, в других, где пиксель - нет.
Интересует: не на уши чо повесить, а как срочно сменить фон не заходя в эти профили, потому-что там ни ответа, ни привета.. или хот-фикс, плиз!
Выключил протект, заменил папку с обоями из рабочего профиля в нерабочий - неа, удалил папку с обоинами - неа.. программисты жи вы заепоненые, ааа.. чо, крутые, да? ..так чо, как быстренько сделать всё тяп-ляп, ааа - тест на крутизну яичка, ааа..
Воровать не умеете, так не убивайте..
И.. вам не кажется нелепым отображать панель закладок сверху, в случае, когда панель вкладок отображается снизу.
Вы неповторимы, просто, неповторимы.
Скажите ещё, что не можете никак нафантазировать как же так сделать: а когда вкладок ни одной, а если её авто скрывать, а что же тогда... господи, простите.
Обновлено 31 октября 2017, 00:44
Тимур
Сотрудник Яндекса31 октября 2017, 11:53
dascratch,
напишите, пожалуйста, через browser.yandex.ru/feedback 
Тимур,
скажите ещё отправить фидбэк из проблемного окна..
Вы бы может хоть какое-то решение (смены фоны без доступа к юи) предложили для начала.
Обновлено 31 октября 2017, 12:45
Не ну это не шапка а дичь полная
НЕ НАДО ТАК
FrozenZacK0,
Шапка ещё 100 раз поменяется, до стабильной версии ей ещё далеко
toham2013,
мечтайте..
Обновлено 31 октября 2017, 13:05
Тимур, еще вопрос и просьба. Не так давно была информация, что в базе логотипов для табло более 3000 логотипов. Понятно, что это много. Но тем не менее, раз вы такую базу ведете, то необходимо вовремя логотипы обновлять. Например, логотип МТС сменился на плоский уже очень давно - у вас же так старый в базе и лежит. Мне не нравится табло с устаревшими логотипами. Это смотрится не круто. А вот своевременное обновление логотипов - это было бы очень круто.
Тимур
Сотрудник Яндекса1 ноября 2017, 21:16
Владимир,
спасибо. 
Будет ли плавная прокрутка в браузере (не имея ввиду настройки: browser://flags/#enable-smooth-scrolling) а типа как у "Лисы"(у них не вероятно- идеально плавно! )
А зачем вы ввели баг с кнопкой Home, с версии 17.10 не работает?
Тимур
Сотрудник Яндекса7 ноября 2017, 13:24
ya.ibudak,
не понял. 
Тимур,
До версии 17.9 включительно на home происходило возвращение на начало страницы (у меня для удобства назначена на мыше), с версии 17.10 и 17.10.1 не работает, приходится использовать двойное нажатие на закладке. Щас поставил 17.9.1 все работает.
На Линукс когда ждать? Последняя версия, пока, 17.9.1.982?..
Кстати по поводу анимированных фонов... Раньше, при первой установке, можно было выбрать любой анимированный фон сразу... Сейчас-же, при первой настройке браузера (как минимум на Линуксе), предлагается лишь поставить картиночный с компа пользователя (максимум включить-выключить саму анимацию анимированного фона по умолчанию)... Приходится ставить другой анимированный фон, уже после первой настройки...


Да и, имхо, когда появился новый дизайн главной страницы, лично я, к примеру, не сразу нашел анимированные фоны в соответствующей галереи Яндекса... Может, все-же, как и раньше, сделать их фонами по умолчанию (как минимум для при проверки устройства на "потянет-ли")? Как ни как, это одна из ми-ми-ми-кавайных фич Яндекс Браузера? :)


И да... Планируется ли, когда-нибудь, поддержка пользовательских анимированных фонов?... Возможно, хитрыми путями (не исследовал этот вопрос) такое и сейчас провернуть можно, но я про официальную поддержку такого...
Обновлено 1 ноября 2017, 21:51
Тимур
Сотрудник Яндекса7 ноября 2017, 13:22
unihorn1,
про пользовательские видеофоны думаем, но тут опасно, что тяжелое видео может привести к тормозам, которые могут списать на плохую работу самого браузера, а не на тяжелое видео. 


Что касается стартового выбора, то думаем над адаптацией под новую галерею. Чтобы такой ситуации не возникало. 
Обновлено 7 ноября 2017, 17:24
Скажите, пожалуйста. У меня шапка серого цвета на новой вкладке, а у вас на скриншотах цвет подстраивается под фон. Это нормально, или у меня какая-то ошибка?
P.s. Боже, у меня остальные профили ещё перестали работать, плиток нет, белый фон. Если открыть любой сайт, то браузер крашится. Вот так обновился, уууу.
Обновлено 1 ноября 2017, 22:00
Тимур
Сотрудник Яндекса7 ноября 2017, 13:20
Randy,
может быть устройство слабое? Лучше написать в поддержку через "Сообщить о проблеме". 
Тимур,
всё уже хорошо, забыл отредактировать комментарий. Сказали, что проблема в самой бете, и предложили временный способ, как это всё поправить, пока не выпустят обновление. 
Тимур
Сотрудник Яндекса8 ноября 2017, 09:12
Randy,
вот-вот новая бета с исправлениями выйдет. 
Тимур,
да, я уже скачал. Осталась лишь одна проблема, у меня не работают видео-обои, и я не знаю, как их активировать. Нет нигде надписей (должно быть вроде в подменю на новой вкладке), чтобы запустить, раньше были значки пауза/плей, а теперь нигде ничего, и изображение статично.
Тимур
Сотрудник Яндекса13 ноября 2017, 10:41
Randy,
странно. Опишите, пожалуйста, ситуацию через "Сообщить о проблеме". 
Доброго времени суток!


А поддержка Touch Bar (Mac OS) в браузере ожидается? Было бы очень приятно, если бы поддерживались функции, как в Safari (например, промотка видео/аудиофайлов). Спасибо.
Обновлено 2 ноября 2017, 11:48
Владислав
2 ноября 2017, 15:22
roman2861,
тоже интересно...
Тимур
Сотрудник Яндекса7 ноября 2017, 13:11
roman2861,
посмотрим, что там можно сделать. 
Не обнаружил новых фонов :(
Даниил,
в галерее фонов... Раздел Видео... Новые фоны в полном составе (даже на моей, более старой, версии браузера (17.9.1.982 (для Линя 17.10.1 еще нет :( )))...


Хотя, возможно, вы с Windows, и не беты версии браузера... А стабильной...


Где, пока еще, не в галерею перемещает (https://browser.yandex.ru/wallpapers), а выдавает список фонов непосредственно на главной странице браузера (он, имхо, может быть ограничен)...
Обновлено 3 ноября 2017, 18:26
unihorn1,
Спасибо за ссылку!
С мака и последней бетой, но просто не мог найти галерею, в . стандартном интерфейсе смены фона ничего не изменилось просто почему-то
Даниил,
если не можете найти кнопку фонов..., то она в нижнем, правом углу главной страницы браузер, и так и называется: "Галерея фонов". Чуть правее от нее (но внешне слитно), еще кнопка с тремя вертикальными точками, там можно отключить анимацию, и включить оповещалку о новых фонах.
Вот скриншот, если что. Так на Винде и Лине, по крайней мере. Вряд-ли в Макоси по другому.
Обновлено 4 ноября 2017, 03:28
unihorn1,
у меня такой кнопки просто в принципе не имеется (скрин)
Даниил,
судя по скрину, у вас не бета, а стейбл (в бете такой выбор фонов убрали заменив его на показанную выше, в моем скрине, кнопку)...


Бета, если что, берется тут.


Страница скачивания беты версии подстраивается под вашу ось, и выдает пакет именно для вашей оси. Но если, вдруг, по умолчанию, выдается не ваша (маковская) версия, то смотрите кнопку "Другие версии", и, оттуда, выберете "Версия для Mac"
Обновлено 4 ноября 2017, 14:52
Игорь Титов
4 ноября 2017, 06:46
НОРМАЛЬНО
mmmmmm.mmmmmmm2013
4 ноября 2017, 07:01
ЕСТЬ ПРОБЛЕМА СТАВЛЮ ГАЛУЧКУ ВОЗЛЕ МЕНЧЕ ОПЕРАТИВНОЙ ПАМЕТИ КАЧЕСТВА ИЗОБРОЖЕНИЕ ХУЖЕ ИСПРА ЭТО
Тимур, просто интересно. На одном из компьютеров в меню есть пункт "Скрыть мешающую рекламу". На других нет - только на одном. Этот пункт меню тоже в каком-то тестовом режиме и должен появляться только на некоторых машинах?
Тимур
Сотрудник Яндекса7 ноября 2017, 13:03
Владимир,
еще не для всех пользователей. Повезло :) 
Вебмастера и создатели ЯБ, вы лучше больше делайте с точки зрения оптимизации продукта, и ускорения открытия веб-страниц. Сколько можно уже обои менять?!
Тимур
Сотрудник Яндекса7 ноября 2017, 13:02
borovsky.lexa,
и это тоже делаем. 
Сделайте что-нибудь с функцией расшаривания ссылки. Сейчас там есть "Отправить по почте" и социалки, но кто вообще отправляет ссылки по почте? Почему не телеграм, слак и тд например? Или возможность кастомизировать это меню завезли бы
Тимур
Сотрудник Яндекса7 ноября 2017, 14:19
Даниил,
спасибо, подумаем. На телефонах такое делать сильно проще :) 
Тимур,
не спорю, сначала мобильные и всё такое, но десктоп тоже должен быть хорош
Александр
7 ноября 2017, 09:05
У меня стабильная версия 17.10.0.2017 и до сих пор нет промежутка между плитками на новой странице. Это нормально, надо подождать?
Александр,
насколько я помню у меня еще в 17.7.1 появились 
Александр
7 ноября 2017, 11:52
darnyk27,
у меня до сих пор, выглядит вот так:
https://yadi.sk/i/jeaR_2tq3PULY4
Александр,
не знаю,вроде как у всех уже должно быть.тем более стабильная версия 17.10 
Обновлено 7 ноября 2017, 12:20
Александр
7 ноября 2017, 12:33
darnyk27,
тем не менее, вот так от :))) Есть смысл переустанавливать браузер?
Тимур
Сотрудник Яндекса7 ноября 2017, 13:00
Александр,
это нормально. Табло еще дорабатываем. 
Александр
7 ноября 2017, 13:06
Тимур,
спасибо, буду ждать :)
Я так и не понял как понять новая у меня шапка или старая,можно фото?
Тимур
Сотрудник Яндекса7 ноября 2017, 17:18
maximanime13,
дополнения на новой вкладке отображаются? Так проще всего. 
Тимур
Сотрудник Яндекса8 ноября 2017, 09:16
maximanime13,
значит старая (если дополнения точно установлены в браузер при этом). 
Вот пришлось три раза почти подряд переустановить Windows и три раза установилась разная версия бетки. В первый раз была старая шапка, во второй с иконками расширений и с кнопкой недавно посещенных страниц на главной странице, сейчас с иконками на главной, но без кнопки. Но ведь удобно же во втором варианте, неужели в финале опять это всё пропадёт :( Не понимаю зачем отказываться от очевидно удобных вещей. Кстати, ещё проблемка небольшая. Почему-то с поиска Яндекса сайты с тормозами открываются, даже вкладка открывается рывками. С гугла, рамблера всё как и раньше. Это на бете только так у меня.
Обновлено 7 ноября 2017, 18:42
Тимур
Сотрудник Яндекса8 ноября 2017, 09:14
Олег,
напишите нам, пожалуйста, о проблеме через "Сообщить о проблеме" в меню (или через жучка). 
Тимур,
добрый день, сегодня напишу обязательно.
Александр
7 ноября 2017, 20:04
Что там за новая шапка хоть?) Она иначе выглядит? Скиньте скриншот, пожалуйста. В список счастливчиков не попал, потому любопытство своё удовлетворить не получается )
Тимур
Сотрудник Яндекса8 ноября 2017, 09:13
Александр,
внешне не изменилась. Технологическое обновление + вернули часть возможностей.
а что это за сайт? https://getyabrowser.com/ru/
Тимур
Сотрудник Яндекса8 ноября 2017, 09:11
ACA85,
оттуда Яндекс.Браузер скачать можно, если с других не получается. 
Тимур,
хорошо.
Тимур скажи а что это за сайт тогда с браузером от яндекса https://browser.oneprog.ru/ ?
Тимур
Сотрудник Яндекса10 ноября 2017, 09:19
ACA85,
а это не наш сайт. 
Версия 1074b, возможность перетаскивать закладки опять отсутствует(( Очень грустно. Это крайне нужная вещь, из-за которой приходится пользоваться иными браузерами. Можно как-то с этим разобраться?
Тимур
Сотрудник Яндекса10 ноября 2017, 09:18
hel.mart,
в новой шапке должно стать лучше с ними. 
Браузер нравится. Но при использовании ленты Дзен при смене страниц самопроизвольно перезагружается. ОС Виндовс 10. Это происходит периодически бессистемно
Тимур
Сотрудник Яндекса10 ноября 2017, 09:16
lev53,
странно. Напишите нам, пожалуйста, через "Сообщить о проблеме" в меню браузера. Поищем причину вместе. 
Александр
9 ноября 2017, 06:36
1) Как сделать, чтобы сайты открывались не на странице с результатами поиска (google), а в новой вкладке?
2) Как отключить поиск по сайту? Имею ввиду ситуацию, когда щелкаешь по адресной строке и вместо поиска в поисковой системе выполняется поиск по сайту - очень раздражает.
Тимур
Сотрудник Яндекса10 ноября 2017, 09:10
Александр,
1. Это зависит от настроек Гугла. У них вроде как такая была. 
2. Поиск по сайту сам по себе не может появиться. У Вас точно расширений никаких не установлено? 
Александр
10 ноября 2017, 09:54
Тимур,
рассказываю сценарий:
1) Если написать в адресной строке google.ru, перейти по этому адресу, осуществить поиск и со страницы выдачи перейти по какой-нибудь ссылке, то она откроется в новой вкладке. 2) А если ввести поисковой запрос непосредственно в адресную строку браузера и со страницы выдачи перейти по какой-нибудь ссылке, то в этот раз ссылка откроется в той же вкладке, а не в новой.
Теперь возьмем эти же две ситуации. 
1) Если написать в адресной строке google.ru, перейти по этому адресу, после чего снова обратиться к адресной строке, то поиска по домену не появляется. Но если осуществить поиск в поисковике, то поиск по домену снова будет появляться при обращении к адресной строке. 2) Если ввести поисковой запрос непосредственно в адресную строку браузера и со страницы выдачи снова обратиться к адресной строке браузера, то уже в этом случае браузер сразу зачем-то предлагает мне поискать по домену.
Расширения стоят, конечно, но справедливости ради, я повторил это в режиме инкогнито и поведение такое же.

Мне непонятна логика работы этого поиска по домену. Например, я для ввода поисковых запросов пользуюсь исключительно строкой браузера, даже если у меня открыта страница поисковика. Соответственно, я что-то поискал по запросу, на странице выдачи обращаюсь к адресной строке браузера чтобы сделать новый поисковой запрос, а Я.Б меня шлёт по домену. Зачем? И так каждый раз.
Тимур
Сотрудник Яндекса13 ноября 2017, 10:51
Александр,
мне не удается повторить это у себя. Напишите, пожалуйста, через "Сообщить о проблеме" в меню браузера. Можно даже привести ссылку на описание в блоге, но лучше ещё раз пунктами и сухо описать алгоритм воспроизведения. Шаги. Ожидаемое поведение. Реальное поведение. 
Александр
13 ноября 2017, 11:20
Тимур,
у меня на двух компьютерах такое поведение. Хорошо, я напишу, как будет время. Даже, наверное, видео запишу, но это неточно.
Александр
9 ноября 2017, 12:54
Можно ли ожидать в будущем, что при просмотре pdf файлов можно будет пользоваться яндекс.переводчиком в контекстном меню, как это сделано на обычных веб страницах? 


Очень удобно, что на веб страницах можно выделить иностранный текст, щелкнуть правой кнопкой мыши и Яндекс тут же предложит перевод. Хотелось бы такую же фичу при просмотре документов.
Тимур
Сотрудник Яндекса10 ноября 2017, 09:10
Александр,
подумаем, спасибо. 
Владислав
11 ноября 2017, 12:07
Тимур,
тоже поддерживаю вопрос. Часто возникает необходимость перевода, приходится копировать текст в переводчик 😐
Подумайте!
Обновлено 11 ноября 2017, 12:10
Тимур
Сотрудник Яндекса13 ноября 2017, 10:39
Владислав,
хотим так сделать :) 
Сделайте чтение текста вслух голосом Алисы.

Можно включить чтение длинной статьи или книги. И заниматься чем то другим.
Давно пользуюсь расширением Speakit! для чтения текста вслух. Его удалили из магазина Сhrome но  у меня еще работает. В Edge появилась возможность"Прочесть вслух" но в отличии от Speakit! голос сильно синтетический.
Владислав
11 ноября 2017, 12:16
Ярослав,
поддерживаю. Давно не понимаю почему Яндекс со своими ресурсами до сих пор не внедрили в браузер это... 😐
Вроде в ближайшем будущем хотят внедрить Алису в браузер, будем надеяться что выделенные тексты тоже будет читать.
Тимур, такое предложение. Насчет мобильного браузера прежде всего. Захожу я на любой форум или хотя бы в этот блог, и мне интересно, какие новые сообщения появились, то есть мне сразу необходимо перейти вниз страницы. На компьютере я в этом случае обычно нажимаю Ctrl+End. А с мобильника приходится долго и упорно листать вниз до конца. Хотелось бы какое-нибудь средство моментального перехода вниз страницы. Кнопкой в меню или лучше жестом.
Или возможно уже есть какие-то дополнения для этого?
Тимур
Сотрудник Яндекса13 ноября 2017, 10:29
Владимир,
теоретически существуют дополнения. Но и мы подумаем. 
Появится ли возможность изменять статичный серый фон шапки на другие цвета, как . например в Google Chrome и Firefox? Серый фон это конечно стильно, но иногда хочется чего-нибудь другого для глаз..
Вы следите за мной? 
Тимур
Сотрудник Яндекса14 ноября 2017, 11:28
yanyshev20,
мы? нет. 
раньше были пробелы между плитками..нужно было переустановить браузер.сегодня уже пропали.почему?
Тимур
Сотрудник Яндекса21 ноября 2017, 11:23
darnyk27,
ещё не готово :) 
Почему на браузере 17.10.0 процессор порой нагружается до 50-60% с несколькими открытыми вкладками при бездействии и вызывает тормоза? Стоит отключить интернет и нагрузка спадает.
OLEGJ5,
сайт или расширение майнит. Если через диспетчер задач браузера определить не получается, закрывай подозрительные вкладки и отключай расширения чтобы определить виновника.
У меня на Хроме майнило расширение Менеджер загрузок. После отключения интернета нагрузка также пропадала.
Тимур
Сотрудник Яндекса21 ноября 2017, 11:22
OLEGJ5,
опишите нам, пожалуйста, примеры таких сайтов через пункт "Сообщить о проблеме" в меню браузера. Так будет проще понять причину. 
Виталий Бугулов
16 ноября 2017, 10:07
В чём причина?? Установил видео фон, не анимируется..  https://clck.ru/CAMEg
Обновлено 16 ноября 2017, 10:10
Тимур
Сотрудник Яндекса21 ноября 2017, 11:11
Виталий Бугулов,
так причину не угадать. Напишите нам, пожалуйста, через "Сообщить о проблеме" в меню браузера. 
Ну вот! Раньше-то нельзя было так сделать? Вот теперь "ВЕРЮ" круто!!!  Я про табло.
Обновлено 18 ноября 2017, 10:52
Тимур
Сотрудник Яндекса21 ноября 2017, 11:10
Руслан,
спасибо. 
Aleksandr Anisimov
21 ноября 2017, 15:00
Можно ли при установке отключить ассоциацию с файлами?
Это очень раздражает когда множество форматов предлагается открыть в браузере.
Тимур
Сотрудник Яндекса21 ноября 2017, 15:18
Aleksandr Anisimov,
нет, но Браузер связывает себя только с теми типами файлов, для которых в системе нет просмотрщиков. 
Aleksandr Anisimov
21 ноября 2017, 15:23
Тимур,
Но всё равно один раз для каждого типа файла система спрашивает чем открыть
Тимур
Сотрудник Яндекса21 ноября 2017, 15:46
Aleksandr Anisimov,
не понимаю. В системе были приложения для открытия кроме Браузера? Если да, то пришлите, пожалуйста, примеры через "Сообщить о проблеме" в меню браузера. 
Aleksandr Anisimov
21 ноября 2017, 16:28
Тимур,
Я имею в виду когда в системе появляется ещё приложение для открытия этого типа файла. Появляется окно Выбор приложения с выбором чем открывать данный тип файла (Спрашивается оставить старое приложение или выбрать новое,  этот запрос появляется только один раз для типа файла)  - https://yadi.sk/d/Vjct2_h93PtrtW
Было бы здорово добавить в установщик кнопку расширенные настройки, чтобы выбирать ассоциировать файла и/или выбрать какие именно типы открывать.
Спасибо за ответ!
Тимур
Сотрудник Яндекса23 ноября 2017, 14:23
Aleksandr Anisimov,
подумать можно. Но я бы просто галочку ставил для запоминания, как на скриншоте :) 
Спасибо за новые иконки Назад, Вперед, Загрузки, Обновить на Win10. Очень хорошие. В связи с этим, два вопроса:
1) А что с этими же иконками на Win7? Они так и останутся старыми?
2) Надо бы подумать теперь, что делать с иконками в главном меню :) Теперь они не очень-то сочетаются с новыми иконками на Win10. 
Тимур
Сотрудник Яндекса23 ноября 2017, 14:21
Владимир,
На Windows 7 свой стиль, соответствующий стилю системы. А над адаптацией иконок меню уже думаем :) 
Тимур,
Не забудьте еще про иконки "Загрузка", "Настройки", "Дополнения" на вкладке соответствующих страниц. Мне кажется, что они должны соответствовать иконкам в меню. По-моему вы про них вообще забыли давно :)
Александр
23 ноября 2017, 02:07
Всё это очень хорошо! Но последнее время нет ничего про версию под Linux. До сих пор предлагаете скачать бету, а когда сообщество увидит первую стабильную версию?
Тимур
Сотрудник Яндекса23 ноября 2017, 14:13
Александр,
мы её уже начали собирать на базе стабильного кода. Но убирать метку беты пока не готовы. 
Александр
23 ноября 2017, 14:34
Тимур,
Понятно. Спасибо за ответ!
Добрый день.


А что нового добавили в версию 17.11? Где-то можно увидеть changelog?
Тимур
Сотрудник Яндекса23 ноября 2017, 14:10
DevilStar-ftp,
исправление ошибок, оптимизация. На отдельный пост не тянет :) 
Тимур,
закладки не починились, так ничего и не перетаскивается(( зная, что может быть иначе, это просто ужас(
Обновлено 23 ноября 2017, 14:16
Тимур
Сотрудник Яндекса23 ноября 2017, 14:41
hel.mart,
обновленная шапка всё ещё доступна не всем. 
Здравствуйте! Сейчас уже версия 17.11.0.
А как получить доступ к  ограниченному тестированию новой «шапки» браузера?
Вот этого "светофорчика"  что я увидел в рассылке, у меня нет...
Тимур
Сотрудник Яндекса27 ноября 2017, 08:15
Игорь,
как будет готово, включим на всех :) я бы дал доступ, но рубильника не предусмотрели для включения. 
а когда будут новые фишки например такие как"экономия памяти,уведомление о новых версиях браузера"уже 17.10.1 стабильная а  их все нет
Обновлено 25 ноября 2017, 14:55
Тимур
Сотрудник Яндекса27 ноября 2017, 08:13
darnyk27,
по мере готовности ¯\_(ツ)_/¯ 
В этом обновлении появился стремный глюк – при заполнении форм с цифрами происходит удваивание числа: вместо "4"– "44" и т.п. Также при написании сообщений на некоторых форумах, при условии редактирования текста, в конечном итоге получаю текст со всеми вариантами слов. Происходит только в ЯБ, во всех остальных бразерах такого нет, т.ч. не вирус((
Текст еще можно переписать, а вот цифры – это  сильно удручает(( 
Владислав
26 ноября 2017, 16:21
hel.mart,
Так это же бета а не релиз, тут люди тестируют.
Владислав,
Считаете глюк с цифрами плановым тестом? Оригинально
Владислав
26 ноября 2017, 18:43
hel.mart,
видать что то глубоко в коде шаманят там, вот и выскакивают косяки )
Тимур
Сотрудник Яндекса27 ноября 2017, 08:08
hel.mart,
не могу у себя повторить. Напишите нам, пожалуйста, через "Сообщить о проблеме" в меню браузера. 
Всем привет, тестим бетку нормальная в принцепе мне нравиться, но шапку бы новую хотел бы глянуть как выглядить))))))), или скриншот бы хотя бы скинули))))))))).
Владислав
27 ноября 2017, 17:17
Алиса в браузере появилась :-)
Ждём новый пост...
Обновлено 27 ноября 2017, 17:19
Владислав,
 и тормоза тоже добавились вместе с ней...
Тимур
Сотрудник Яндекса29 ноября 2017, 14:41
Владислав,
вот только сегодня на всех включили :) 
Тимур
Сотрудник Яндекса29 ноября 2017, 14:41
OLEGJ5,
опишите, пожалуйста, симптомы через "Написать отзыв" в настройках. 
Тимур,
А чем Яндекс.Строка принципиально отличается от Алисы? С ней поговорить также можно еще..?
Тимур
Сотрудник Яндекса4 декабря 2017, 10:26
KovalyovAlekc,
Строка теперь и есть Алиса (бета-версия). Возможности немного другие. 
Хотелось бы увидеть в последующих версиях темную тему, собираетесь ли вы её добавлять?
Тимур
Сотрудник Яндекса4 декабря 2017, 10:38
Syendy,
идея есть, но тут не всё так просто. 
Добрый день.
Где найти новые анимированные фоны? Если нажать на стартовом экране браузера - настроить экран, то показывает старые фоны (11 шт) - http://radikal.ru/lfp/s019.radikal.ru/i626/1712/b6/f99994a8482f.jpg/htm
Версия браузера - 17.10.1.1204
zero359one,
Все, нашел, но как отдельная ссылка на эти фоны ( https://browser.yandex.ru/wallpapers/ ), а "кнопки" галерея фонов на стартовой странице, почему-то нет...
Обновлено 2 декабря 2017, 14:14
zero359one,
а теперь другая проблема, видео фоны не работают, то есть не "двигаются", устанавливается как простая картинка... Компьютер достаточно мощный))
Тимур
Сотрудник Яндекса4 декабря 2017, 10:36
zero359one,
в бете? Напишите нам, пожалуйста, через "Сообщить о проблеме" в меню браузера. 
Тимур,
Спасибо, написал. Версия 17.10.1.1204, не бэта.
Здравствуйте, хотел бы сказать об отображении вкладок на вертикальном(а не привычно горизонтальном) мониторе, выглядит это не особо здорово...
Может можно с этим что-то сделать? https://yadi.sk/i/VKlmf8TU3QHRo8
Спасибо!
Обновлено 4 декабря 2017, 04:12
Тимур
Сотрудник Яндекса4 декабря 2017, 10:39
KovalyovAlekc,
подумаем. 
Браузером пользуюсь с 2012 года все отлично. но вот немного оптимизировать расход озу не помешало бы а то с последними обновлениями многовато забирает 40-50% при 1-3 открытых вкладках. Озу 8 гб 
Тимур
Сотрудник Яндекса6 декабря 2017, 13:51
abramow.anton-a,
добрый день. Сомневаюсь, что это связано с последним обновлением. Опишите нам, пожалуйста, симптомы и детальный пример через "Сообщить о проблеме" в меню браузера. 
Блин как принудительно сказать браузеру качать обои fullhd? анимированные фоны имеют разрешение 1366х768
-----------

Stream #0:0(eng): Video: vp8, yuv420p(progressive), 1366x768, SAR 1:1 DAR 683:384, 25 fps, 25 tbr, 1k tbn, 1k tbc (default)
-----------
Хотя ноутбук fullhd, ускорение аппаратное видео включено, i7, 16gb памяти...что за дискриминация((((
Где на linux найти этот анимированный загруженный фон? Какой файл отвечает за фон(json)?
Тимур
Сотрудник Яндекса15 декабря 2017, 14:06
ceo.roman,
напишите нам, пожалуйста, в поддержку. Там более детально посмотрят на конфигурацию. 
Доброго времени суток!
Я тоже программист и уже долгое время работаю в Вашем браузере, все устаивает, только есть пару моментов по адресной строке (я обновился до 17.10.1, но видимо это еще старая версия, иконок расширений на новой вкладке нет):
Можно ли отключить показ табло при выделении адресной строки?
- Просто если мне нужно табло, то я открываю новую вкладку жестом, что быстрее, чем кликнуть в адресной строке, в итоге мини-табло при выделении адресной строки мешает, закрывает полстраницы.
- И еще пожелание по адресной строке, было бы удобно выделять часть ссылки без предварительного клика в строке (в других браузерах так и это удобно), плюс после клика ссылка смещается влево из-за того, что иконки Обновить и Режим чтения скрываются, это тоже хотелось бы пофиксить.
на fedora27 в vk не грузятся видео, установлен последний ppapi, что надо делать?
Тимур
Сотрудник Яндекса22 января, 09:41
blade261,
написать нам через "Сообщить о проблеме" в меню браузера :-) так проще и быстрее. 
Мишка Черный
18 октября, 10:45
НУЖЕН ТАЧ БАР ДЛЯ МАКА!!!! Единственный из крупных браузеров, кто не поддерживает! печально!!!